冰冰网

 找回密码
 开放注册,禁止乱回复
搜索
查看: 3603|回复: 143

[转载作品] 伊波拉病毒.1996.HDDVD.1080p.x264.AC3.2Audios-DiaosMan[mp4/4G][国粤中字](转)

  [复制链接]
 成长值: 4120

4万

主题

4万

帖子

1778

积分

监察员

Rank: 7Rank: 7Rank: 7

UID
45
积分
1778
冰币
13216
威望
61

版主发布组大富之家大将军

发表于 2016-5-23 12:29:14 | 显示全部楼层 |阅读模式 |        |

整剧均由DiaosMan个人压制完成。为更好控制文件大小,以H.264或HEVC(H.265)+硬字幕+AC3或AAC.MP4格式压制。为了大家更好的观赏视频DiaosMan承若绝不在字幕和视频中添加任何与影片无关的信息和水印。请大家转载时请在著名DiaosMan压制。
DiaosMan个人是对电影的爱好,希望带给大家好的东西,所以利用业余时间压制,发布时间相对较慢,但基本保证每星期发有两到三部影片或剧集。
DiaosMan压制所用视频和字幕均来自网络,如侵犯到任何个人或公司团体组织权益请及时与我留言,我将第一时间删除。

本作品非本站制作,不要求认真回复,拒绝垃圾回复


e1d654969ebf1863bffecc60a99d3c13.jpg

◎片  名 - 埃博拉病毒
◎中文译名 -
◎日  期 - 1996615
◎国家地区 - 美国
◎对  白 - 国语、英语
IMDb链接 -
◎影片时长 -  101分钟
◎影片导演 - 邱礼涛
◎主要演员 - 黄秋生,陈妙瑛尹扬明成奎安吴瑞庭,张露
◎资源介绍 - 古惑仔阿鸡〔黄秋生饰〕因与大佬之妻子通奸,被大佬(成奎安饰)发现。大佬本欲把二人杀死,却被阿鸡得手,把大佬夫妇杀死。阿鸡因谋杀案逃离到南非一家餐馆工作,其间奸杀了一名昏迷的黑人少女,但死者本身已有埃博拉病毒,阿鸡感染了也不自知。不久阿鸡强奸餐馆东主夫人,被餐馆东主发现了,连餐馆东主夫妇也杀死,并把二人起肉拆骨,制成人肉汉堡包出售。其身上病毒因而蔓延至很多人,而阿鸡却因而变得丧心病狂.

◎编码参数
General
Complete name                    : 伊波拉病毒.1996.HDDVD.1080p.x264.AC3.2Audios.中字-DiaosMan.mp4.mp4
Format                           : MPEG-4
Format profile                   : Base Media
Codec ID                         : isom
File size                        : 4.14 GiB
Duration                         : 1h 40mn
Overall bit rate                 : 5 897 Kbps
Encoded date                     : UTC 2016-05-18 03:26:01
Tagged date                      : UTC 2016-05-18 03:26:01

Video
ID                               : 1
Format                           : AVC
Format/Info                      : Advanced Video Codec
Format profile                   : High@L4.0
Format settings, CABAC           : Yes
Format settings, ReFrames        : 4 frames
Codec ID                         : avc1
Codec ID/Info                    : Advanced Video Coding
Duration                         : 1h 40mn
Bit rate mode                    : Variable
Bit rate                         : 5 511 Kbps
Maximum bit rate                 : 15.8 Mbps
Width                            : 1 920 pixels
Height                           : 1 080 pixels
Display aspect ratio             : 16:9
Frame rate mode                  : Constant
Frame rate                       : 23.976 fps
Color space                      : YUV
Chroma subsampling               : 4:2:0
Bit depth                        : 8 bits
Scan type                        : Progressive
Bits/(Pixel*Frame)               : 0.111
Stream size                      : 3.87 GiB (93%)
Writing library                  : x264 core 146
Encoding settings                : opencl=1 / cabac=1 / ref=1 /deblock=1:-1:-1 / analyse=0x3:0x113 / me=hex / subme=2 / psy=1 /psy_rd=1.00:0.15 / mixed_ref=0 / me_range=16 / chroma_me=1 / trellis=0 /8x8dct=1 / cqm=0 / deadzone=21,11 / fast_pskip=1 / chroma_qp_offset=0 /threads=6 / lookahead_threads=2 / sliced_threads=0 / nr=0 / decimate=1 /interlaced=0 / bluray_compat=0 / constrained_intra=0 / bframes=3 / b_pyramid=2/ b_adapt=1 / b_bias=0 / direct=1 / weightb=1 / open_gop=0 / weightp=1 /keyint=250 / keyint_min=23 / scenecut=40 / intra_refresh=0 / rc_lookahead=10 /rc=crf / mbtree=1 / crf=20.0 / qcomp=0.60 / qpmin=0 / qpmax=69 / qpstep=4 /ip_ratio=1.40 / aq=1:1.00
Tagged date                      : UTC 2016-05-18 03:30:26

Audio #1
ID                               : 2
Format                           : AC-3
Format/Info                      : Audio Coding 3
Mode extension                   : CM (complete main)
Codec ID                         : ac-3
Duration                         : 1h 40mn
Bit rate mode                    : Constant
Bit rate                         : 192 Kbps
Maximum bit rate                 : 203 Kbps
Channel(s)                       : 2 channels
Channel positions                : Front: L R
Sampling rate                    : 48.0 KHz
Bit depth                        : 16 bits
Compression mode                 : Lossy
Stream size                      : 138 MiB (3%)
Title                            : 国语
Language                         : Chinese
Encoded date                     : UTC 2016-05-18 03:29:38
Tagged date                      : UTC 2016-05-18 03:30:26

Audio #2
ID                               : 3
Format                           : AC-3
Format/Info                      : Audio Coding 3
Mode extension                   : CM (complete main)
Codec ID                         : ac-3
Duration                         : 1h 40mn
Bit rate mode                    : Constant
Bit rate                         : 192 Kbps
Maximum bit rate                 : 203 Kbps
Channel(s)                       : 2 channels
Channel positions                : Front: L R
Sampling rate                    : 48.0 KHz
Bit depth                        : 16 bits
Compression mode                 : Lossy
Stream size                      : 138 MiB (3%)
Title                            : 粤语
Language                         : Chinese
Encoded date                     : UTC 2016-05-18 03:30:03
Tagged date                      : UTC 2016-05-18 03:30:26

◎视频截图
f4f627113e3c315cfd790f20272c2b34.jpg
b4ceb385a53d14993c0471653a14c61f.jpg
6de298c975833e0f09bcaf5264400aa4.jpg
4a2f69f50b66edd27519f53044c4bd0d.jpg

(下载后,扩展名改成.mp4即可)
游客,如果您要查看本帖隐藏内容请回复,   如果您想享受免回复免冰币无广告权限→→请捐助论坛

1

主题

1985

帖子

82

积分

小将

Rank: 2

UID
162086
积分
82
冰币
714
威望
-2
发表于 2016-5-23 13:00:01 | 显示全部楼层
伊波拉病毒
回复 支持 反对

使用道具 举报

1

主题

2266

帖子

1199

积分

大将

Rank: 4

UID
94116
积分
1199
冰币
12526
威望
-1
发表于 2016-5-23 13:09:20 | 显示全部楼层
感谢发布分享
回复 支持 反对

使用道具 举报

3

主题

479

帖子

104

积分

中将

Rank: 2

UID
444852
积分
104
冰币
658
威望
-2
发表于 2016-5-23 13:09:30 来自手机 | 显示全部楼层
看看再说吧哈哈哈
回复 支持 反对

使用道具 举报

3

主题

550

帖子

192

积分

中将

Rank: 2

UID
451193
积分
192
冰币
2065
威望
0
发表于 2016-5-23 14:34:07 | 显示全部楼层
最近老片比较多,谢谢分享
如果人
回复 支持 反对

使用道具 举报

3

主题

550

帖子

192

积分

中将

Rank: 2

UID
451193
积分
192
冰币
2065
威望
0
发表于 2016-5-23 14:34:30 | 显示全部楼层
本帖最后由 ak470519 于 2016-5-23 14:36 编辑

这个片子文件有点大啊,画质应该比较好吧?发片辛苦。
如果人
回复 支持 反对

使用道具 举报

0

主题

4213

帖子

1567

积分

大将

Rank: 4

UID
441378
积分
1567
冰币
16948
威望
-3
发表于 2016-5-23 15:03:04 | 显示全部楼层
埃博拉病毒
回复 支持 反对

使用道具 举报

1

主题

933

帖子

541

积分

大将

Rank: 4

UID
142963
积分
541
冰币
5760
威望
0
发表于 2016-5-23 15:36:21 | 显示全部楼层
早听说过,没看过
回复 支持 反对

使用道具 举报

1

主题

1500

帖子

840

积分

大将

Rank: 4

UID
60694
积分
840
冰币
8033
威望
0

捐助会员

发表于 2016-5-23 15:48:09 | 显示全部楼层
很好呢,最近好像有很多这种片子发布呢
回复 支持 反对

使用道具 举报

0

主题

3461

帖子

2145

积分

大将

Rank: 4

UID
442024
积分
2145
冰币
23189
威望
0
发表于 2016-5-23 15:56:22 | 显示全部楼层
不错啊,谢分享。
回复 支持 反对

使用道具 举报

本版积分规则

手机版|小黑屋|冰冰网 ( 粤ICP备10024810号-1 )

GMT+8, 2021-1-27 20:41

Powered by www.discuz.net Discuz! X3.4

© 2001-2012 Comsenz Inc sitemap a67 s80


本站影视音乐资源来自互联网免费共享,仅供交流学习之用,版权归作者本人所有,如果侵犯了您的权益,请通知我们,邮箱地址mail@aapig.com
快速回复 返回顶部 返回列表