冰冰网

 找回密码
 开放注册,禁止乱回复
搜索
查看: 1878|回复: 86

[转载作品] 第五元素.The Fifth Element.1997.BluRay.1080p.x264.AAC6.2Audios-DiaosMan][mp4/5.2 G](转)

  [复制链接]
 成长值: 4070

4万

主题

4万

帖子

1778

积分

监察员

Rank: 7Rank: 7Rank: 7

UID
45
积分
1778
冰币
13216
威望
61

版主发布组大富之家大将军

发表于 2016-5-11 20:42:53 | 显示全部楼层 |阅读模式 |        |
整剧均由DiaosMan个人用蓝光原盘+硬字幕x.264. mp4格式压制。为了大家更好的观赏视频DiaosMan承若绝不在字幕和视频中添加任何与影片无关的信息和水印。请大家转载时请在著名DiaosMan压制。
DiaosMan个人是对电影的爱好,希望带给大家好的东西,所以利用业余时间压制,发布时间相对较慢,但基本保证每星期发有两到三部影片或剧集。
DiaosMan压制所用视频和字幕均来自网络,如侵犯到任何个人或公司团体组织权益请及时与我留言,我将第一时间删除。

本作品非本站制作,不要求认真回复,拒绝垃圾回复



◎片  名 - 第五元素
◎中文译名 - The Fifth Element
◎日  期 - 1997年5月7日(美国)  
◎国家地区 - 美国
◎对  白 - 国语、英语
◎IMDB链接  www.aapig.com.cn http://www.imdb.com/title/tt0119116/
◎影片时长 - 126分钟
◎影片导演 - 吕克·贝松
◎主要演员 - 布鲁斯·威利斯,米拉·乔沃维奇,加里·奥德曼 饰,伊安·霍姆,克里斯·塔克,卢克·贝里,布里翁·詹姆斯

◎资源介绍 - 古希腊神话相传自然界的四大元素:风,火,水,土,它们各自有一块代表的神石。这四块元素神石连同第五元素,被蒙督沙瓦人在1914年带离了地球。300年后的23世纪,地球面临着一场浩劫。蒙督沙瓦人带着第五元素和四大元素神石重返地球,以帮助地球度过劫数。可惜携有第五元素的飞船却被另一外星人孟加罗人击落了。地球人仅获得第五元素的残骸。
       实验室利用第五元素残骸的DNA重新构造了第五元素,构造出一个漂亮的红发女郎丽露。丽露与一身痞气的柯本一同前往一个叫“失落天堂”的星球找寻四块元素的神石。但是在战斗中丽露受伤昏迷。最后柯本用爱唤醒了莉露,拯救了地球

◎编码参数 -  
General
Complete name                    : 第五元素.The Fifth Element.1997.BluRay.1080p.x264.AAC6.2Audios.中英特效-DiaosMan.mp4
Format                           : MPEG-4
Format profile                   : Base Media
Codec ID                         : isom
File size                        : 6.17 GiB
Duration                         : 2h 5mn
Overall bit rate                 : 7 018 Kbps
Encoded date                     : UTC 2016-04-12 21:06:09
Tagged date                      : UTC 2016-04-12 21:06:09

Video
ID                               : 1
Format                           : AVC
Format/Info                      : Advanced Video Codec
Format profile                   : High@L4.0
Format settings, CABAC           : No
Format settings, ReFrames        : 1 frame
Codec ID                         : avc1
Codec ID/Info                    : Advanced Video Coding
Duration                         : 2h 5mn
Bit rate mode                    : Variable
Bit rate                         : 6 500 Kbps
Maximum bit rate                 : 83.6 Mbps
Width                            : 1 920 pixels
Height                           : 1 080 pixels
Display aspect ratio             : 16:9
Frame rate mode                  : Constant
Frame rate                       : 23.976 fps
Color space                      : YUV
Chroma subsampling               : 4:2:0
Bit depth                        : 8 bits
Scan type                        : Progressive
Bits/(Pixel*Frame)               : 0.131
Stream size                      : 5.68 GiB (92%)
Writing library                  : x264 core 116 r2019 9cc407d
Encoding settings                : cabac=0 / ref=1 / deblock=1:0:0 / analyse=0x3:0x113 / me=hex / subme=7 / psy=1 / psy_rd=1.00:0.00 / mixed_ref=0 / me_range=16 / chroma_me=1 / trellis=1 / 8x8dct=1 / cqm=0 / deadzone=21,11 / fast_pskip=1 / chroma_qp_offset=-2 / threads=6 / sliced_threads=0 / nr=0 / decimate=1 / interlaced=0 / bluray_compat=0 / constrained_intra=0 / bframes=0 / weightp=2 / keyint=250 / keyint_min=23 / scenecut=40 / intra_refresh=0 / rc_lookahead=40 / rc=abr / mbtree=1 / bitrate=6500 / ratetol=1.0 / qcomp=0.60 / qpmin=0 / qpmax=69 / qpstep=4 / ip_ratio=1.40 / aq=1:1.00
Encoded date                     : UTC 2016-04-12 20:56:45
Tagged date                      : UTC 2016-04-12 21:15:07

Audio #1
ID                               : 2
Format                           : AAC
Format/Info                      : Advanced Audio Codec
Format profile                   : LC
Codec ID                         : 40
Duration                         : 2h 5mn
Bit rate mode                    : Variable
Bit rate                         : 239 Kbps
Maximum bit rate                 : 328 Kbps
Channel(s)                       : 6 channels
Channel positions                : Front: L C R, Side: L R, LFE
Sampling rate                    : 48.0 KHz
Compression mode                 : Lossy
Stream size                      : 216 MiB (3%)
Title                            : Chinese 5.1
Language                         : Chinese
Encoded date                     : UTC 2016-04-12 21:13:46
Tagged date                      : UTC 2016-04-12 21:15:07

Audio #2
ID                               : 3
Format                           : AAC
Format/Info                      : Advanced Audio Codec
Format profile                   : LC
Codec ID                         : 40
Duration                         : 2h 5mn
Bit rate mode                    : Variable
Bit rate                         : 320 Kbps
Maximum bit rate                 : 430 Kbps
Channel(s)                       : 6 channels
Channel positions                : Front: L C R, Side: L R, LFE
Sampling rate                    : 48.0 KHz
Compression mode                 : Lossy
Stream size                      : 288 MiB (5%)
Title                            : English 5.1
Language                         : English
Encoded date                     : UTC 2016-04-12 21:14:21
Tagged date                      : UTC 2016-04-12 21:15:07

◎视频截图
15d2a658ec021425ce8cde7040ff03c2.jpg
490d1e3948902e917e9aad162791d633.jpg
327e9a20f389228bccc47cff0b9aff16.jpg
26e2b7d13e5e895a45a2d3f967aaeaf6.jpg
b2dac05da09d5f8db057b76e896ce983.jpg
f263f7bd5a50db290f5d3f383160b48f.jpg
d2aab47aeb342d20f30dc3fa0a450161.jpg
e11e620f3de3a01fd28111ac6d394f6a.jpg





(下载后,扩展名为改成.mp4即可)
游客,如果您要查看本帖隐藏内容请回复,   如果您想享受免回复免冰币无广告权限→→请捐助论坛

1

主题

618

帖子

127

积分

中将

Rank: 2

UID
155449
积分
127
冰币
1315
威望
0
发表于 2016-5-11 21:11:00 | 显示全部楼层
真的很不错 谢谢
回复 支持 反对

使用道具 举报

3

主题

550

帖子

192

积分

中将

Rank: 2

UID
451193
积分
192
冰币
2065
威望
0
发表于 2016-5-11 21:25:54 | 显示全部楼层
虽然是快20年前的电影,可是确实经典,谢谢分享。
如果人
回复 支持 反对

使用道具 举报

0

主题

3414

帖子

1462

积分

大将

Rank: 4

UID
3742
积分
1462
冰币
16066
威望
-52
发表于 2016-5-11 22:18:00 | 显示全部楼层
感谢楼主分享   
回复 支持 反对

使用道具 举报

0

主题

732

帖子

31

积分

小将

Rank: 2

UID
52514
积分
31
冰币
266
威望
-4
发表于 2016-5-11 22:50:23 | 显示全部楼层
很喜欢米拉·乔沃维奇,
回复 支持 反对

使用道具 举报

0

主题

4207

帖子

1561

积分

大将

Rank: 4

UID
441378
积分
1561
冰币
16890
威望
-3
发表于 2016-5-11 23:01:06 | 显示全部楼层
貌似挺不错哦
回复 支持 反对

使用道具 举报

1

主题

1859

帖子

532

积分

大将

Rank: 4

UID
102312
积分
532
冰币
5393
威望
-3
发表于 2016-5-12 00:00:44 | 显示全部楼层
感谢楼主分享
回复 支持 反对

使用道具 举报

0

主题

760

帖子

434

积分

部将

Rank: 3Rank: 3

UID
437546
积分
434
冰币
4650
威望
0
发表于 2016-5-12 08:17:57 | 显示全部楼层
感谢分享,忘了看没看过了
回复 支持 反对

使用道具 举报

1

主题

2016

帖子

912

积分

大将

Rank: 4

UID
92613
积分
912
冰币
9506
威望
-1
发表于 2016-5-12 09:39:46 | 显示全部楼层
感谢楼主提供这个!!...
回复 支持 反对

使用道具 举报

本版积分规则

手机版|小黑屋|冰冰网 ( 粤ICP备10024810号-1 )

GMT+8, 2021-1-22 14:59

Powered by www.discuz.net Discuz! X3.4

© 2001-2012 Comsenz Inc sitemap a67 s80


本站影视音乐资源来自互联网免费共享,仅供交流学习之用,版权归作者本人所有,如果侵犯了您的权益,请通知我们,邮箱地址mail@aapig.com
快速回复 返回顶部 返回列表